Energy of Life 2 [36 Video Clips] (2012) DVD5
фильмы / концерты клипы 9 006 De3ePTuP 12-10-2012, 19:39 Размер: 4.38 GB
Energy of Life 2 [36 Video Clips] (2012) DVD5



Название: Energy of Life 2
Год выхода: 2012
Жанр: Pop, Trance, House
Исполнитель: MIX2082RUS
Продолжительность: 021741

Качество: DVD 5
Видео: 720x480 (16:9 NTSC), 29.97fps, MPEG2 Video, ~3850 Kbps, 0.370 Bits/(Pixel*Frame)
Звук: AC3, 48000Hz, 2ch, 192kbps

Трек-лист


1.2-4 Grooves - Rockset 000333
2.Basslovers United - Drunken 000328
3.Benny Benassi vs Marshall Jefferson - Move Your Body 000347
4.Big Ali - Bring Me 000403
5.Bogdan feat Dr Slim - Time To Move 000320
6.Dee & Crane - Let The Music Play 000335
7.Die Atzen - Party 000338
8.DJ Elad Buzaglo - Mizrahit 2012 001351
9.DJ ELLA Feat. RICKY J - Welcome To The Club ( Remix )000324
10.Flo Rida - Let It Roll 000346
11.Gia - Lights Out 000412
12.Greg Parys - The Girl Is Mine 000336
13.Gromee Feat. Tommy Gunn & Ali Tennant - You Make Me Say 000335
14.Irakli ft. Demirra - Give it all to you 000419
15.Israel Cruz feat. The Twins - Body 000316
16.Jodie Connor feat. Busta Rhymes - Take You There 000309
17.Juan Magan - No Sigue Modas 000309
18.M.Iam.I Feat Flo-Rida - Avalanche 000359
19.Matrix & Futurebound feat. Luke Bingham - All I Know 000320
20.Max Urban feat. Rocky Rock - Best Party In Town 000331
21.Micha Moor feat. Shena - Take Me To The Clouds Above 000319
22.Michael Beltran & Flip Da Scrip - Je t'aime 000357
23.Mr Z - Mine Mine Mine 000324
24.Mr. Fire feat Big Diddo - I need more music 000318
25.Phillipp Ray - Viktoria Benasi - Esta Manana 000338
26.Plumbers - In The Club (Remix Edit Club) 000351
27.R.I.O. Feat. U-Jean - Summer Jam 000310
28.Rave Radio feat Xamplify - Make It Rain 000327
29.Redd, Qwote & Pitbull - Bedroom (David May Mix) 000308
30.Remady & Manu-L feat. J-Son -Single Ladies 000347
31.Sak Noel - Where 000319
32.Sasha Dith & Steve Modana - Radio loves you 000327
33.Sirius - Save The Moment feat. Johnel 000325
34.Soundshakerz Feat. Mc Shurakano - BigAlabina 000316
35.Sunset Project - Welcome Back 000308
36.Taio Cruz - There She Goes 000338





MediaInfo

General
Complete name : J:ЗагрVIDEO_TSVTS_01_1.VOB
Format : MPEG-PS
File size : 104 MiB
Duration : 3mn 32s
Overall bit rate mode : Variable
Overall bit rate : 4 103 Kbps

Video
ID : 224 (0xE0)
Format : MPEG Video
Format version : Version 2
Format profile : [email protected]
Format settings, BVOP : Yes
Format settings, Matrix : Default
Format settings, GOP : M=3, N=13
Duration : 3mn 32s
Bit rate mode : Variable
Bit rate : 3 830 Kbps
Maximum bit rate : 9 008 Kbps
Width : 720 pixels
Height : 480 pixels
Display aspect ratio : 16:9
Frame rate : 29.970 fps
Standard : NTSC
Color space : YUV
Chroma subsampling : 4:2:0
Bit depth : 8 bits
Scan type : Progressive
Compression mode : Lossy
Bits/(Pixel*Frame) : 0.370
Stream size : 97.1 MiB (93%)

Audio
ID : 189 (0xBD)-128 (0x80)
Format : AC-3
Format/Info : Audio Coding 3
Mode extension : CM (complete main)
Muxing mode : DVD-Video
Duration : 3mn 32s
Bit rate mode : Constant
Bit rate : 192 Kbps
Channel(s) : 2 channels
Channel positions : Front: L R
Sampling rate : 48.0 KHz
Bit depth : 16 bits
Compression mode : Lossy
Stream size : 4.87 MiB (5%)






Скачать с сервера напрямую

Информация
Посетители, находящиеся в группе Гости, не могут оставлять комментарии к данной публикации.